1. Penecho's Avatar
    Hi,

    I was trying to put some MP3's on my Lumia 950XL and have Groove play them, but for some reason it did not work.

    I downloaded some dubstep mixes from Youtube and used VLC to convert them to *.mp3. When I copied them on my SD card, Windows Explorer asked me if I want to convert them (I tried both, yes and no). Sadly it did not work... So I was wondering what I have to do so I can play them on my Mobile phone in Groove???

    Here is what Media Info says:

    Audio
    ID : 68 (0x44)
    Menu ID : 1 (0x1)
    Format : MPEG Audio
    Format version : Version 1
    Format profile : Layer 3
    Mode : Joint stereo
    Mode extension : MS Stereo
    Codec ID : 3
    Duration : 1h 0mn
    Bit rate mode : Constant
    Bit rate : 128 Kbps
    Channel(s) : 2 channels
    Sampling rate : 44.1 KHz
    Compression mode : Lossy
    Stream size : 55.8 MiB (68%)
    Writing library : LAME3.99.5
    Language : English
    07-09-2016 05:10 AM
  2. Chintan Gohel's Avatar
    Hi,

    I was trying to put some MP3's on my Lumia 950XL and have Groove play them, but for some reason it did not work.

    I downloaded some dubstep mixes from Youtube and used VLC to convert them to *.mp3. When I copied them on my SD card, Windows Explorer asked me if I want to convert them (I tried both, yes and no). Sadly it did not work... So I was wondering what I have to do so I can play them on my Mobile phone in Groove???

    Here is what Media Info says:

    Audio
    ID : 68 (0x44)
    Menu ID : 1 (0x1)
    Format : MPEG Audio
    Format version : Version 1
    Format profile : Layer 3
    Mode : Joint stereo
    Mode extension : MS Stereo
    Codec ID : 3
    Duration : 1h 0mn
    Bit rate mode : Constant
    Bit rate : 128 Kbps
    Channel(s) : 2 channels
    Sampling rate : 44.1 KHz
    Compression mode : Lossy
    Stream size : 55.8 MiB (68%)
    Writing library : LAME3.99.5
    Language : English
    I would suggest you use some other converter to convert to mp3. Also, can you copy the file before converting and try to play it?
    Penecho likes this.
    07-09-2016 05:22 AM
  3. Penecho's Avatar
    Sorry for the late reply, It worked out when loading it into adobe audition and saving it as MP3 again
    Chintan Gohel likes this.
    08-24-2016 12:24 PM
  4. Chintan Gohel's Avatar
    Sorry for the late reply, It worked out when loading it into adobe audition and saving it as MP3 again
    so your problem is sorted?
    08-25-2016 01:07 PM

Similar Threads

  1. Replies: 1
    Last Post: 07-05-2016, 04:48 AM
  2. Quiet hours in 12 hours format?
    By Schnuffi in forum Ask a Question
    Replies: 8
    Last Post: 07-02-2016, 09:36 AM
  3. Why am I unable to format my SD Card in Windows 10?
    By Windows Central Question in forum Windows 10
    Replies: 1
    Last Post: 06-21-2016, 12:25 PM
  4. If I format my C drive, will I lose my saved files on OneDrive?
    By Windows Central Question in forum OneDrive
    Replies: 1
    Last Post: 06-16-2016, 09:59 PM
  5. Replies: 2
    Last Post: 06-16-2016, 10:08 AM
LINK TO POST COPIED TO CLIPBOARD